Hansel and Gretel Witch Hunters 2013 1080p BluRay x264 AAC 5.1 ES...

  • Category Movies
  • Type HD
  • Language English
  • Total size 2.3 GB
  • Uploaded By Hon3yHD
  • Downloads 655
  • Last checked 1 day ago
  • Date uploaded 5 days ago
  • Seeders 55
  • Leechers 24

Hansel & Gretel: Witch Hunters

ActionFantasyHorror

After getting a taste for blood as children, Hansel and Gretel have become the ultimate vigilantes, hell-bent on retribution. Now, unbeknownst to them, Hansel and Gretel have become the hunted, and must face an evil far greater than witches... their past.

Infohash : A9CF9080180665C29C85AA8E7591414BDABF79D3




Hansel and Gretel Witch Hunters 2013 1080p BluRay x264 AAC 5.1 ESub -Hon3y

http://hon3yhd.to/


Format                      : Matroska
Format version              : Version 4 / Version 2
File size                   : 2.27 GiB
Duration                    : 1 h 37 min
Overall bit rate            : 3 322 kb/s
Movie name                  : Hansel and Gretel Witch Hunters 2013 - Hon3y


Video
ID                          : 1
Format                      : AVC
Format/Info                 : Advanced Video Codec
Format profile              : [email protected]
Format settings, CABAC      : Yes
Format settings, ReFrames   : 5 frames
Codec ID                    : V_MPEG4/ISO/AVC
Duration                    : 1 h 37 min
Bit rate                    : 3 000 kb/s
Width                       : 1 920 pixels
Height                      : 800 pixels
Display aspect ratio        : 2.40:1
Frame rate mode             : Constant
Frame rate                  : 23.976 (24000/1001) FPS
Language                    : English
Default                     : Yes
Forced                      : No

Audio
ID                          : 2
Format                      : AAC
Format/Info                 : Advanced Audio Codec
Format profile              : LC
Codec ID                    : A_AAC
Duration                    : 1 h 37 min
Bit rate                    : 320 kb/s
Channel(s)                  : 6 channels
Channel positions           : Front: L C R, Side: L R, LFE
Sampling rate               : 48.0 kHz
Frame rate                  : 46.875 FPS (1024 spf)
Compression mode            : Lossy
Delay relative to video     : 9 ms
Stream size                 : 224 MiB (10%)
Language                    : English
Default                     : Yes
Forced                      : No

Text #1
ID                          : 3
Format                      : UTF-8
Codec ID                    : S_TEXT/UTF8
Codec ID/Info               : UTF-8 Plain Text
Duration                    : 1 h 29 min
Bit rate                    : 35 b/s
Count of elements           : 905
Stream size                 : 23.5 KiB (0%)
Title                       : English
Language                    : English
Default                     : No
Forced                      : No

Text #2
ID                          : 4
Format                      : UTF-8
Codec ID                    : S_TEXT/UTF8
Codec ID/Info               : UTF-8 Plain Text
Duration                    : 1 h 31 min
Bit rate                    : 41 b/s
Count of elements           : 1189
Stream size                 : 28.1 KiB (0%)
Title                       : English
Language                    : English
Default                     : No
Forced                      : No

Menu
00:00:00.000                : en:00:00:00.000
00:09:02.333                : en:00:09:02.333
00:16:12.805                : en:00:16:12.805
00:26:24.958                : en:00:26:24.958
00:35:18.033                : en:00:35:18.033
00:46:34.750                : en:00:46:34.750
00:57:17.726                : en:00:57:17.726
01:04:26.279                : en:01:04:26.279
01:09:44.389                : en:01:09:44.389
01:14:10.571                : en:01:14:10.571
01:22:05.003                : en:01:22:05.003
01:29:02.254                : en:01:29:02.254

http://hon3yhd.to/



Files:

Hansel and Gretel Witch Hunters 2013 1080p BluRay x264 AAC 5.1 ESub -Hon3y
  • Hansel and Gretel Witch Hunters 2013 1080p BluRay x264 AAC 5.1 ESub -Hon3y.mkv (2.3 GB)
  • Torrent Seed By www.cyber-planet.in.txt (0.1 KB)
  • www.hon3yhd.to.txt (0.1 KB)

There are currently no comments. Feel free to leave one :)

Code:

  • udp://tracker.coppersurfer.tk:6969/announce
  • udp://tracker.pirateparty.gr:6969/announce
  • udp://shadowshq.yi.org:6969/announce
  • udp://eddie4.nl:6969/announce
  • udp://tracker.leechers-paradise.org:6969/announce
  • udp://tracker.opentrackr.org:1337/announce
  • udp://p4p.arenabg.ch:1337/announce
  • udp://p4p.arenabg.com:1337/announce
  • udp://9.rarbg.me:2710/announce
  • udp://9.rarbg.to:2710/announce
  • udp://tracker.coppersurfer.tk:80/announce
  • udp://tracker.vanitycore.co:6969/announce
  • udp://public.popcorn-tracker.org:6969/announce
  • udp://tracker.opentrackr.org:1337/announce
  • udp://tracker.zer0day.to:1337/announce