Logan Lucky 2017 HDRip AC3-CMRG

  • Category Movies
  • Type Mp4
  • Language English
  • Total size 1.7 GB
  • Uploaded By vain321
  • Downloads 265
  • Last checked 1 day ago
  • Date uploaded 4 days ago
  • Seeders 6
  • Leechers 2

Infohash : 4986C87FF6FD7C44A9C2B83AFDFFF094E0EF1C4F



Story:

Two brothers attempt to pull off a heist during a NASCAR race in North Carolina.


Video
ID                          : 1
Format                      : AVC
Format/Info                 : Advanced Video Codec
Format profile              : [email protected]
Format settings             : CABAC / 4 Ref Frames
Format settings, CABAC      : Yes
Format settings, RefFrames  : 4 frames
Codec ID                    : avc1
Codec ID/Info               : Advanced Video Coding
Duration                    : 1 h 59 min
Bit rate                    : 1 700 kb/s
Width                       : 720 pixels
Height                      : 300 pixels
Display aspect ratio        : 2.40:1
Frame rate mode             : Variable
Frame rate                  : 23.976 (24000/1001) FPS
Minimum frame rate          : 23.974 FPS
Maximum frame rate          : 23.981 FPS
Color space                 : YUV
Chroma subsampling          : 4:2:0
Bit depth                   : 8 bits
Scan type                   : Progressive
Bits/(Pixel*Frame)          : 0.328
Stream size                 : 1.37 GiB (81%)
Writing library             : x264 core 142 r2479 dd79a61
Encoding settings           : cabac=1 / ref=3 / deblock=1:0:0 / analyse=0x3:0x113 / me=hex / subme=7 / psy=1 / psy_rd=1.00:0.00 / mixed_ref=1 / me_range=16 / chroma_me=1 / trellis=1 / 8x8dct=1 / cqm=0 / deadzone=21,11 / fast_pskip=1 / chroma_qp_offset=-2 / threads=60 / lookahead_threads=2 / sliced_threads=0 / nr=0 / decimate=1 / interlaced=0 / bluray_compat=0 / constrained_intra=0 / bframes=3 / b_pyramid=2 / b_adapt=1 / b_bias=0 / direct=1 / weightb=1 / open_gop=0 / weightp=2 / keyint=240 / keyint_min=24 / scenecut=40 / intra_refresh=0 / rc_lookahead=40 / rc=abr / mbtree=1 / bitrate=1700 / ratetol=1.0 / qcomp=0.60 / qpmin=0 / qpmax=69 / qpstep=4 / vbv_maxrate=62500 / vbv_bufsize=78125 / nal_hrd=none / filler=0 / ip_ratio=1.40 / aq=1:1.00
Encoded date                : UTC 2017-11-14 05:51:36
Tagged date                 : UTC 2017-11-14 05:51:36
Color range                 : Limited
Color primaries             : BT.709
Transfer characteristics    : BT.709
Matrix coefficients         : BT.709
Menus                       : 4

Audio #1
ID                          : 2
Format                      : AAC
Format/Info                 : Advanced Audio Codec
Format profile              : LC
Codec ID                    : mp4a-40-2
Duration                    : 1 h 59 min
Bit rate mode               : Variable
Bit rate                    : 160 kb/s
Channel(s)                  : 2 channels
Channel positions           : Front: L R
Sampling rate               : 44.1 kHz
Frame rate                  : 43.066 FPS (1024 SPF)
Compression mode            : Lossy
Stream size                 : 136 MiB (8%)
Title                       : Stereo / Stereo
Language                    : English
Default                     : Yes
Alternate group             : 1
Encoded date                : UTC 2017-11-14 05:51:36
Tagged date                 : UTC 2017-11-14 05:51:36
Fallback From               : 3
Menus                       : 4

Audio #2
ID                          : 3
Format                      : AC-3
Format/Info                 : Audio Coding 3
Format settings, Endianness : Big
Codec ID                    : ac-3
Duration                    : 1 h 59 min
Bit rate mode               : Constant
Bit rate                    : 224 kb/s
Channel(s)                  : 2 channels
Channel positions           : Front: L R
Sampling rate               : 44.1 kHz
Frame rate                  : 28.711 FPS (1536 SPF)
Bit depth                   : 16 bits
Compression mode            : Lossy
Stream size                 : 191 MiB (11%)
Title                       : Stereo / Stereo
Language                    : English
Service kind                : Complete Main
Default                     : Inherited From: 2
Alternate group             : 1
Encoded date                : UTC 2017-11-14 05:51:36
Tagged date                 : UTC 2017-11-14 05:51:36
Fallback To                 : 2

Files:

  • Logan Lucky 2017 HDRip AC3-CMRG.m4v (1.7 GB)

Comments

Code:

  • udp://tracker.leechers-paradise.org:6969/announce