Survivor 2015 720p BluRay x264 Dual Audio [Hindi - English 2.0] E...

  • Category Movies
  • Type Dubs/Dual Audio
  • Language Hindi
  • Total size 889.1 MB
  • Uploaded By moviezworldz
  • Downloads 3795
  • Last checked 3 hours ago
  • Date uploaded 3 days ago
  • Seeders 38
  • Leechers 18

Survivor

ActionThriller

Milla Jovovich stars in 'Survivor', a thriller about a State Department employee newly posted to the American embassy in London, where she is charged with stopping terrorists from getting into the U.S. Putting her in the line of fire: targeted for death, framed for crimes she didn't commit, discredited and on the run. Now she must find a way to clear her name and stop a large-scale terrorist attack set for New Year's Eve in New York's Times Square.

Infohash : 05F5F7A53EFD08457E66BDF4DFCD020D9B94078F






General
Format : Matroska
Format version : Version 4 / Version 2
File size : 889 MiB
Duration : 1 h 36 min
Overall bit rate : 1 289 kb/s

Video
ID : 1
Format : AVC
Format/Info : Advanced Video Codec
Format profile : [email protected]
Format settings : CABAC / 4 Ref Frames
Format settings, CABAC : Yes
Format settings, RefFrames : 4 frames
Codec ID : V_MPEG4/ISO/AVC
Duration : 1 h 36 min
Bit rate : 996 kb/s
Width : 1 280 pixels
Height : 536 pixels
Display aspect ratio : 2.40:1
Frame rate mode : Constant
Frame rate : 23.976 (24000/1001) FPS
Original frame rate : 23.976 (23976/1000) FPS
Color space : YUV
Chroma subsampling : 4:2:0
Bit depth : 8 bits
Scan type : Progressive
Bits/(Pixel*Frame) : 0.061
Stream size : 687 MiB (77%)
Writing library : x264 core 123 r2189 35cf912
Default : Yes
Forced : No

Audio #1
ID : 2
Format : AAC
Format/Info : Advanced Audio Codec
Format profile : LC
Codec ID : A_AAC-2
Duration : 1 h 36 min
Bit rate : 196 kb/s
Channel(s) : 2 channels
Channel positions : Front: L R
Sampling rate : 44.1 kHz
Frame rate : 43.066 FPS (1024 SPF)
Compression mode : Lossy
Stream size : 135 MiB (15%)
Language : Hindi
Default : Yes
Forced : No

Audio #2
ID : 3
Format : AAC
Format/Info : Advanced Audio Codec
Format profile : LC
Codec ID : A_AAC-2
Duration : 1 h 36 min
Bit rate : 93.7 kb/s
Channel(s) : 2 channels
Channel positions : Front: L R
Sampling rate : 48.0 kHz
Frame rate : 46.875 FPS (1024 SPF)
Compression mode : Lossy
Stream size : 64.6 MiB (7%)
Language : English
Default : No
Forced : No

Text
ID : 4
Format : UTF-8
Codec ID : S_TEXT/UTF8
Codec ID/Info : UTF-8 Plain Text
Duration : 1 h 26 min
Bit rate : 45 b/s
Count of elements : 747
Stream size : 28.8 KiB (0%)
Default : Yes
Forced : No










Files:

Survivor 2015 720p BluRay x264 Dual Audio [Hindi - English 2.0] ESub
  • Survivor 2015 720p BluRay x264 Dual Audio [Hindi - English 2.0] ESub.mkv (889.1 MB)

There are currently no comments. Feel free to leave one :)

Code:

  • http://ipv4.tracker.harry.lu/announce
  • http://ipv4.tracker.harry.lu:80/announce
  • udp://tracker.pirateparty.gr:6969/announce
  • udp://p4p.arenabg.com:1337/announce
  • udp://9.rarbg.me:2770/announce
  • udp://9.rarbg.com:2740/announce
  • udp://9.rarbg.to:2750/announce
  • http://tracker.devil-torrents.pl:80/announce
  • http://tracker.devil-torrents.pl/announce
  • http://open.kickasstracker.com/announce
  • http://open.kickasstracker.com:443/announce
  • udp://tracker.coppersurfer.tk:6969/announce
  • udp://tracker.leechers-paradise.org:6969/announce
  • udp://tracker.zer0day.to:1337/announce
  • http://tracker.devil-torrents.pl/announce