The.Walking.Dead.8x04.Uno.Qualunque.ITA.ENG.1080p.WEB-DLMux.H264-...

  • Category TV
  • Type HD
  • Language English
  • Total size 1.7 GB
  • Uploaded By ppb1
  • Downloads 1144
  • Last checked 1 day ago
  • Date uploaded 4 days ago
  • Seeders 249
  • Leechers 37
70%
November 13, 2017, 3:00 am

The Walking Dead

8x4 | Some Guy

A new weapon in the Savior arsenal proves to be a giant hurdle as fighting continues between Rick's forces and those of the Saviors.

Infohash : 3E48CDD6D15DE31D8658AF6DD90D11680FDA09AD

GIUSEPPEiCV & LITTLELINX
HANNO IL PIACERE DI PRESENTARE


THE WALKING DEAD
STAGIONE 8
WEB-DLMUX 1080p



.: Dati Serie :.


Nazione : USA
Anno : 2017
Genere : azione, drammatico, horror
Stagione 8
Episodi : 16
Durata : 45 min circa
Lingua : ITA - ENG
Ideatore : Frank Darabont, Robert Kirkman
Cast :
    Interpreti e personaggi
• Andrew Lincoln: Rick Grimes
• Jon Bernthal: Shane Walsh
• Sarah Wayne Callies: Lori Grimes
• Laurie Holden: Andrea
• Jeffrey DeMunn: Dale Horvath
• Steven Yeun: Glenn
• Norman Reedus: Daryl Dixon
• Chandler Riggs: Carl Grimes
• Melissa McBride: Carol Peletier


.: Trama  :.

Sheriff Deputy Rick Grimes wakes up from a coma to learn the world is in ruins, and must lead a group of survivors to stay alive.

La guerra tra Salvatori e i sopravvissuti dell'Apocalisse è ufficialmente iniziata.

Rick contro Negan danno il via alla resa dei conti.

Tra conferme nel cast e nuovi arrivi, scopriremo finalmente chi sarà il vero leader del nuovo mondo, in una nuova stagione che si preannuncia decisamente più frenetica della precedente.

Le morti di Glenn, Abraham e Sasha basteranno per assicurare la salvezza ai loro compagni, o qualcun altro perderà la vita?

Sarà Rick a morire?

La nuova stagione si aprirà con l'episodio numero 100, che celebrerà tutti i sacrifici fatti dai protagonisti per arrivare fin qui, a una guerra in cui non si faranno prigionieri...



.: Screenshot :.





.: Report :.

[spoiler]
The.Walking.Dead.8x01.Possa.La.Mia.Misericordia.Prevalere.Sulla.Mia.Ira.ITA.ENG.1080p.WEB-DLMux.H264-Morpheus.mkv
Format                                   : Matroska
Format version                           : Version 4 / Version 2
File size                                : 1.91 GiB
Duration                                 : 45mn 18s
Overall bit rate                         : 6 050 Kbps
Encoded date                             : UTC 2017-10-23 21:14:38
Writing application                      : mkvmerge v7.6.0 ('Garden of Dreams') 64bit built on Feb  8 2015 15:12:28
Writing library                          : libebml v1.3.1 + libmatroska v1.4.2
DURATION                                 : 00:45:18.656000000
NUMBER_OF_FRAMES                         : 84958
NUMBER_OF_BYTES                          : 130495488
_STATISTICS_WRITING_APP                  : mkvmerge v7.6.0 ('Garden of Dreams') 64bit built on Feb  8 2015 15:12:28
_STATISTICS_WRITING_DATE_UTC             : 2017-10-23 21:14:38
_STATISTICS_TAGS                         : BPS DURATION NUMBER_OF_FRAMES NUMBER_OF_BYTES

Video
ID                                       : 1
Format                                   : AVC
Format/Info                              : Advanced Video Codec
Format profile                           : [email protected]
Format settings, CABAC                   : Yes
Format settings, ReFrames                : 4 frames
Codec ID                                 : V_MPEG4/ISO/AVC
Duration                                 : 45mn 18s
Bit rate                                 : 5 353 Kbps
Width                                    : 1 908 pixels
Height                                   : 1 068 pixels
Display aspect ratio                     : 16:9
Frame rate                               : 25.000 fps
Color space                              : YUV
Chroma subsampling                       : 4:2:0
Bit depth                                : 8 bits
Scan type                                : Progressive
Bits/(Pixel*Frame)                       : 0.105
Stream size                              : 1.69 GiB (88%)
Language                                 : English
Default                                  : Yes
Forced                                   : No
Color primaries                          : BT.709-5, BT.1361, IEC 61966-2-4, SMPTE RP177
Transfer characteristics                 : BT.709-5, BT.1361
Matrix coefficients                      : BT.709-5, BT.1361, IEC 61966-2-4 709, SMPTE RP177

Audio #1
ID                                       : 2
Format                                   : AC-3
Format/Info                              : Audio Coding 3
Mode extension                           : CM (complete main)
Codec ID                                 : A_AC3
Duration                                 : 45mn 18s
Bit rate mode                            : Constant
Bit rate                                 : 192 Kbps
Channel(s)                               : 2 channels
Channel positions                        : Front: L R
Sampling rate                            : 48.0 KHz
Bit depth                                : 16 bits
Compression mode                         : Lossy
Stream size                              : 62.2 MiB (3%)
Title                                    : ITA
Language                                 : Italian
Default                                  : Yes
Forced                                   : Yes

Audio #2
ID                                       : 3
Format                                   : AC-3
Format/Info                              : Audio Coding 3
Mode extension                           : CM (complete main)
Codec ID                                 : A_AC3
Duration                                 : 45mn 18s
Bit rate mode                            : Constant
Bit rate                                 : 384 Kbps
Channel(s)                               : 6 channels
Channel positions                        : Front: L C R, Side: L R, LFE
Sampling rate                            : 48.0 KHz
Bit depth                                : 16 bits
Compression mode                         : Lossy
Stream size                              : 124 MiB (6%)
Title                                    : ENG
Language                                 : English
Default                                  : No
Forced                                   : No

Text #1
ID                                       : 4
Format                                   : UTF-8
Codec ID                                 : S_TEXT/UTF8
Codec ID/Info                            : UTF-8 Plain Text
Title                                    : ITA - Forced
Language                                 : Italian
Default                                  : Yes
Forced                                   : Yes

Text #2
ID                                       : 5
Format                                   : UTF-8
Codec ID                                 : S_TEXT/UTF8
Codec ID/Info                            : UTF-8 Plain Text
Language                                 : Italian
Default                                  : No
Forced                                   : No

Text #3
ID                                       : 6
Format                                   : UTF-8
Codec ID                                 : S_TEXT/UTF8
Codec ID/Info                            : UTF-8 Plain Text
Language                                 : English
Default                                  : No
Forced                                   : No

Text #4
ID                                       : 7
Format                                   : UTF-8
Codec ID                                 : S_TEXT/UTF8
Codec ID/Info                            : UTF-8 Plain Text
Title                                    : SDH
Language                                 : English
Default                                  : No
Forced                                   : No

[/spoiler]


.: Ringraziamenti :.




RESTATE IN SEED ALTRIMENTI





Files:

  • The.Walking.Dead.8x04.Uno.Qualunque.ITA.ENG.1080p.WEB-DLMux.H264-Morpheus.mkv (1.7 GB)

There are currently no comments. Feel free to leave one :)

Code:

  • http://tracker.tntvillage.scambioetico.org:2710/announce
  • udp://tracker.opentrackr.org:1337/announce
  • udp://9.rarbg.me:2710/announce
  • udp://torrent.gresille.org:80/announce
  • http://mgtracker.org:2710/announce
  • udp://tracker.leechers-paradise.org:6969/announce
  • http://tracker.tfile.me/announce
  • udp://explodie.org:6969/announce