Amityville.The.Awakening.2017.1080p.BRRip.x264.AAC.5.1.-.Hon3y

  • Category Movies
  • Type HD
  • Language English
  • Total size 2.0 GB
  • Uploaded By Hon3yHD
  • Downloads 188
  • Last checked 5 days ago
  • Date uploaded 1 week ago
  • Seeders 45
  • Leechers 16

Amityville: The Awakening

ThrillerHorror

Belle, her little sister, and her comatose twin brother move into a new house with their single mother Joan in order to save money to help pay for her brother's expensive healthcare. But when strange phenomena begin to occur in the house including the miraculous recovery of her brother, Belle begins to suspect her Mother isn't telling her everything and soon realizes they just moved into the infamous Amityville house.

Infohash : F390F33FF30FFD1C59E6E4331791C51B293B571D





http://imdb.com/title/tt1935897/


Format : Matroska
Format version : Version 4 / Version 2
File size : 2.02 GiB
Duration : 1 h 27 min
Overall bit rate : 3 316 kb/s

Video
ID : 1
Format : AVC
Format/Info : Advanced Video Codec
Format profile : [email protected]
Format settings, CABAC : Yes
Format settings, RefFrames : 5 frames
Codec ID : V_MPEG4/ISO/AVC
Duration : 1 h 27 min
Bit rate : 3 000 kb/s
Width : 1 920 pixels
Height : 824 pixels
Display aspect ratio : 2.35:1
Frame rate mode : Constant
Frame rate : 23.976 (24000/1001) FPS

Audio
ID : 2
Format : AAC
Format/Info : Advanced Audio Codec
Format profile : LC
Codec ID : A_AAC
Duration : 1 h 27 min
Bit rate : 315 kb/s
Channel(s) : 6 channels
Channel positions : Front: L C R, Side: L R, LFE
Sampling rate : 48.0 kHz

Text #1
ID : 3
Format : ASS
Codec ID : S_TEXT/ASS
Codec ID/Info : Advanced Sub Station Alpha
Duration : 1 h 21 min
Bit rate : 74 b/s
Count of elements : 938
Compression mode : Lossless
Stream size : 44.5 KiB (0%)
Language : English
Default : No
Forced : No

Text #2
ID : 4
Format : ASS
Codec ID : S_TEXT/ASS
Codec ID/Info : Advanced Sub Station Alpha
Duration : 1 h 25 min
Bit rate : 92 b/s
Count of elements : 1229
Compression mode : Lossless
Stream size : 58.1 KiB (0%)
Language : English
Default : No
Forced : No

Menu
00:00:00.000 : :00:00:00.000
00:01:37.431 : :00:01:37.431
00:06:23.884 : :00:06:23.883
00:11:18.761 : :00:11:18.720
00:17:59.996 : :00:17:59.996
00:23:22.234 : :00:23:22.192
00:29:34.523 : :00:29:34.523
00:34:45.333 : :00:34:45.292
00:39:14.102 : :00:39:14.060
00:45:24.972 : :00:45:24.972
00:49:53.866 : :00:49:53.741
00:55:09.139 : :00:55:09.014
01:00:30.043 : :01:00:30.001
01:07:06.231 : :01:07:06.105
01:14:40.184 : :01:14:40.142
01:22:31.864 : :01:22:31.738



http://hon3yhd.to

Files:

Amityville.The.Awakening.2017.1080p.BRRip.x264.AAC.5.1.-.Hon3y
  • www.hon3yhd.to.txt (0.1 KB)
  • Amityville.The.Awakening.2017.1080p.BRRip.x264.AAC.5.1.-.Hon3y.mkv (2.0 GB)

There are currently no comments. Feel free to leave one :)

Code:

  • udp://tracker.coppersurfer.tk:6969/announce
  • udp://tracker.pirateparty.gr:6969/announce
  • udp://shadowshq.yi.org:6969/announce
  • udp://eddie4.nl:6969/announce
  • udp://tracker.leechers-paradise.org:6969/announce
  • udp://tracker.opentrackr.org:1337/announce
  • udp://p4p.arenabg.ch:1337/announce
  • udp://p4p.arenabg.com:1337/announce
  • udp://9.rarbg.me:2710/announce
  • udp://9.rarbg.to:2710/announce
  • udp://tracker.coppersurfer.tk:80/announce
  • udp://tracker.vanitycore.co:6969/announce
  • udp://public.popcorn-tracker.org:6969/announce
  • udp://tracker.opentrackr.org:1337/announce
  • udp://tracker.zer0day.to:1337/announce