Amityville The Awakening (2017) x 824 (1080p) DD5.1 - 2.0 x264 Ph...

  • Category Movies
  • Type HD
  • Language English
  • Total size 1.6 GB
  • Uploaded By PhunPsyz
  • Downloads 26
  • Last checked 4 hours ago
  • Date uploaded 1 month ago
  • Seeders 1
  • Leechers 5

Amityville: The Awakening

ThrillerHorror

Belle, her little sister, and her comatose twin brother move into a new house with their single mother Joan in order to save money to help pay for her brother's expensive healthcare. But when strange phenomena begin to occur in the house including the miraculous recovery of her brother, Belle begins to suspect her Mother isn't telling her everything and soon realizes they just moved into the infamous Amityville house.

Infohash : 681BD1142A8908C67B13141AFC9E2D7ABA668540

www.imdb.com/title/tt1935897/

A desperate single mother moves with her three children into the notorious, supposedly haunted, real-life Amityville house to try and use its dark powers to cure her comatose son. Things go horribly wrong.

Source: AMIABLE (6.55 GiB)








Format : MPEG-4
Format profile : Base Media / Version 2
Codec ID : mp42 (isom/iso2/avc1/mp41)
File size : 1.60 GiB
Duration : 1 h 27 min
Overall bit rate mode : Variable
Overall bit rate : 2 635 kb/s
Writing application : HandBrake 1.0.7 2017040900

Video
ID : 1
Format : AVC
Format/Info : Advanced Video Codec
Format profile : [email protected]
Format settings : CABAC / 8 Ref Frames
Format settings, CABAC : Yes
Format settings, RefFrames : 8 frames
Codec ID : avc1
Codec ID/Info : Advanced Video Coding
Duration : 1 h 27 min
Bit rate : 2 148 kb/s
Width : 1 920 pixels
Height : 824 pixels
Display aspect ratio : 2.35:1
Frame rate mode : Variable
Frame rate : 23.976 (24000/1001) FPS
Minimum frame rate : 23.974 FPS
Maximum frame rate : 23.981 FPS
Color space : YUV
Chroma subsampling : 4:2:0
Bit depth : 8 bits
Scan type : Progressive
Bits/(Pixel*Frame) : 0.057
Stream size : 1.31 GiB (82%)
Writing library : x264 core 148 r2708 86b7198
Color range : Limited
Color primaries : BT.709
Transfer characteristics : BT.709
Matrix coefficients : BT.709
Menus : 5

Audio #1
ID : 2
Format : AC-3
Format/Info : Audio Coding 3
Format settings, Endianness : Big
Codec ID : ac-3
Duration : 1 h 27 min
Bit rate mode : Constant
Bit rate : 320 kb/s
Channel(s) : 6 channels
Channel positions : Front: L C R, Side: L R, LFE
Sampling rate : 48.0 kHz
Frame rate : 31.250 FPS (1536 SPF)
Bit depth : 16 bits
Compression mode : Lossy
Stream size : 199 MiB (12%)
Title : Surround / Surround
Language : English
Service kind : Complete Main
Default : Yes
Alternate group : 1
Fallback To : 3

Audio #2
ID : 3
Format : AAC
Format/Info : Advanced Audio Codec
Format profile : LC
Codec ID : mp4a-40-2
Duration : 1 h 27 min
Bit rate mode : Variable
Bit rate : 159 kb/s
Channel(s) : 2 channels
Channel positions : Front: L R
Sampling rate : 48.0 kHz
Frame rate : 46.875 FPS (1024 SPF)
Compression mode : Lossy
Stream size : 99.0 MiB (6%)
Title : Stereo / Stereo
Language : English
Default : Inherited From: 2
Alternate group : 1
Fallback From : 2
Menus : 5

Text
ID : 4
Format : Timed Text
Muxing mode : sbtl
Codec ID : tx3g
Duration : 1 h 22 min
Bit rate mode : Variable
Bit rate : 45 b/s
Stream size : 26.9 KiB (0%)
Language : English
Default : Yes
Forced : No
Alternate group : 3
Menus : 5

Menu
ID : 5
Codec ID : text
Duration : 1 h 27 min
Language : English
Bit rate mode : CBR
Menu For : 1,3,4
00:00:00.000 : 00:00:00.000
00:01:37.431 : 00:01:37.431
00:06:23.884 : 00:06:23.883
00:11:18.761 : 00:11:18.720
00:17:59.996 : 00:17:59.996
00:23:22.234 : 00:23:22.192
00:29:34.523 : 00:29:34.523
00:34:45.333 : 00:34:45.292
00:39:14.102 : 00:39:14.060
00:45:24.972 : 00:45:24.972
00:49:53.866 : 00:49:53.741
00:55:09.139 : 00:55:09.014
01:00:30.043 : 01:00:30.001
01:07:06.231 : 01:07:06.105
01:14:40.184 : 01:14:40.142
01:22:31.864 : 01:22:31.738

Files:

  • Amityville The Awakening (2017) x 824 (1080p) DD5.1 - 2.0 x264 Phun Psyz.mp4 (1.6 GB)

There are currently no comments. Feel free to leave one :)

Code:

  • udp://tracker.pirateparty.gr:6969/announce
  • udp://tracker.leechers-paradise.org:6969/announce
  • udp://tracker.internetwarriors.net:1337/announce
  • udp://inferno.demonoid.pw:3391/announce
  • udp://tracker.grepler.com:6969/announce
  • http://explodie.org:6969/announce
  • http://mgtracker.org:6969/announce
  • udp://tracker.coppersurfer.tk:6969/announce
  • udp://public.popcorn-tracker.org:6969/announce
  • udp://ipv4.tracker.harry.lu:80/announce
  • http://tracker.opentrackr.org/announce
  • udp://tracker.tiny-vps.com:6969/announce