Shattered.2017.HDRip.XviD.AC3

  • Category Movies
  • Type Divx/Xvid
  • Language English
  • Total size 957.1 MB
  • Uploaded By Creampie
  • Downloads 515
  • Last checked 2 hours ago
  • Date uploaded 1 week ago
  • Seeders 16
  • Leechers 4

Infohash : A76E973BE238A8C18A47BD62A23337906266C462

******************************Thumbnail:**********************



******************************Screenshots:********************

Screen 1


Screen 2


Screen 3


Screen 4


Screen 5

****************************************************************

General
Complete name : Shattered.2017.HDRip.XviD.AC3.mp4
Format : MPEG-4
Format profile : Base Media
Codec ID : isom (isom/iso2/avc1/mp41)
File size : 947 MiB
Duration : 1 h 30 min
Overall bit rate : 1 460 kb/s
Writing application : Lavf57.56.101

Video
ID : 1
Format : AVC
Format/Info : Advanced Video Codec
Format profile : [email protected]
Format settings : CABAC / 4 Ref Frames
Format settings, CABAC : Yes
Format settings, RefFrames : 4 frames
Codec ID : avc1
Codec ID/Info : Advanced Video Coding
Duration : 1 h 30 min
Bit rate : 1 200 kb/s
Width : 720 pixels
Height : 384 pixels
Display aspect ratio : 1.85:1
Frame rate mode : Constant
Frame rate : 23.976 (23976/1000) FPS
Color space : YUV
Chroma subsampling : 4:2:0
Bit depth : 8 bits
Scan type : Progressive
Bits/(Pixel*Frame) : 0.181
Stream size : 778 MiB (82%)

Audio
ID : 2
Format : AC-3
Format/Info : Audio Coding 3
Codec ID : ac-3
Duration : 1 h 30 min
Bit rate mode : Constant
Bit rate : 256 kb/s
Channel(s) : 6 channels
Channel positions : Front: L C R, Side: L R, LFE
Sampling rate : 48.0 kHz
Frame rate : 31.250 FPS (1536 SPF)
Bit depth : 16 bits
Compression mode : Lossy
Stream size : 166 MiB (18%)
Service kind : Complete Main
Default : Yes
Alternate group : 1

Files:

Shattered.2017.HDRip.XviD.AC3
  • 1.jpg (32.0 KB)
  • Sample.ts (9.8 MB)
  • Shattered.2017.HDRip.XviD.AC3.mp4 (947.3 MB)

There are currently no comments. Feel free to leave one :)

Code:

  • udp://tracker.openbittorrent.com:80/announce
  • udp://tracker.opentrackr.org:1337/announce