Comedy Nights Bachao
Kicks (2016)

Jigsaw 2017 1080p WEB-DL DD 5.1 x264 [Moviezworldz]

  • Category Movies
  • Type HD
  • Language English
  • Total size 1.5 GB
  • Uploaded By moviezworldz
  • Downloads 303
  • Last checked 1 day ago
  • Date uploaded 3 months ago
  • Seeders 7
  • Leechers 2

Jigsaw

HorrorThriller

Dead bodies begin to turn up all over the city, each meeting their demise in a variety of grisly ways. All investigations begin to point the finger at deceased killer John Kramer.

Infohash : C7D49AF49B347419E4ABBC56DECA29B170119A69




General
Format : Matroska
Format version : Version 4 / Version 2
File size : 1.45 GiB
Duration : 1 h 31 min
Overall bit rate : 2 263 kb/s

Video
ID : 1
Format : AVC
Format/Info : Advanced Video Codec
Format profile : [email protected]
Format settings : CABAC / 4 Ref Frames
Format settings, CABAC : Yes
Format settings, ReFrames : 4 frames
Codec ID : V_MPEG4/ISO/AVC
Duration : 1 h 31 min
Bit rate : 2 100 kb/s
Width : 1 900 pixels
Height : 796 pixels
Display aspect ratio : 2.40:1
Frame rate mode : Constant
Frame rate : 23.976 (24000/1001) FPS
Color space : YUV
Chroma subsampling : 4:2:0
Bit depth : 8 bits
Scan type : Progressive
Bits/(Pixel*Frame) : 0.058
Stream size : 1.29 GiB (89%)
Writing library : x264 core 148 r2708 86b7198
Default : Yes
Forced : No

Audio
ID : 2
Format : AC-3
Format/Info : Audio Coding 3
Codec ID : A_AC3
Duration : 1 h 31 min
Bit rate mode : Constant
Bit rate : 256 kb/s
Channel(s) : 6 channels
Channel positions : Front: L C R, Side: L R, LFE
Sampling rate : 48.0 kHz
Frame rate : 31.250 FPS (1536 SPF)
Bit depth : 16 bits
Compression mode : Lossy
Stream size : 168 MiB (11%)
Language : English
Service kind : Complete Main
Default : Yes
Forced : No
















Files:

Jigsaw 2017 1080p WEB-DL DD 5.1 x264
  • Jigsaw 2017 1080p WEB-DL DD 5.1 x264.mkv (1.5 GB)

There are currently no comments. Feel free to leave one :)

Code:

  • udp://tracker.coppersurfer.tk:6969/announce
  • udp://tracker.cyberia.is:6969/announce
  • udp://inferno.demonoid.pw:3391/announce
  • udp://open.stealth.si:80/announce
  • udp://tracker.pirateparty.gr:6969/announce
  • udp://peerfect.org:6969/announce
  • udp://p4p.arenabg.com:1337/announce
  • udp://p4p.arenabg.ch:1337/announce
  • udp://tracker.leechers-paradise.org:6969/announce
  • udp://ipv4.tracker.harry.lu:80/announce
  • udp://shadowshq.yi.org:6969/announce
  • udp://tracker.vanitycore.co:6969/announce
  • udp://tracker.opentrackr.org:1337/announce
  • udp://explodie.org:6969/announce
  • udp://tracker.zer0day.to:1337/announce
  • udp://tracker.leechers-paradise.org:6969/announce
  • udp://coppersurfer.tk:6969/announce