18+ Acts Of Violence 2018 UNCENSORED Movies HDRip XviD AAC with S...

  • Category Movies
  • Type HD
  • Language English
  • Total size 705.3 MB
  • Uploaded By nehalpuja
  • Downloads 752
  • Last checked 4 days ago
  • Date uploaded 1 week ago
  • Seeders 25
  • Leechers 13

Infohash : E026DA4663E1344558F8FFE6667D16348ABAD928

18+ Acts Of Violence 2018 UNCENSORED Movies HDRip XviD AAC with Sample ☻rDX☻
===============================================================================================

SCREEN SHOTS:



or

http://postimage.co.nr/2018/1/domains/1.html

File size : 694 MiB
Duration : 1 h 26 min
Overall bit rate : 1 121 kb/s
Movie name : 18+ Acts Of Violence 2018 UNCENSORED Movies HDRip XviD AAC ☻rDX☻

Video
ID : 2
Format : MPEG-4 Visual
Format profile : Advanced [email protected]
Format settings, BVOP : 2
Format settings, QPel : No
Format settings, GMC : No warppoints
Format settings, Matrix : Default (H.263)
Muxing mode : Packed bitstream
Codec ID : V_MS/VFW/FOURCC / XVID
Codec ID/Hint : XviD
Duration : 1 h 26 min
Bit rate : 971 kb/s
Width : 640 pixels
Height : 272 pixels
Display aspect ratio : 2.35:1
Frame rate mode : Constant
Frame rate : 23.976 (24000/1001) FPS
Color space : YUV
Chroma subsampling : 4:2:0
Bit depth : 8 bits
Scan type : Progressive
Compression mode : Lossy
Bits/(Pixel*Frame) : 0.233
Stream size : 601 MiB (87%)
Title : ☻rDX☻
Writing library : XviD
Default : Yes
Forced : No

Audio
ID : 1
Format : MPEG Audio
Format version : Version 1
Format profile : Layer 3
Mode : Joint stereo
Mode extension : MS Stereo
Codec ID : A_MPEG/L3
Codec ID/Hint : MP3
Duration : 1 h 26 min
Bit rate mode : Constant
Bit rate : 128 kb/s
Channel(s) : 2 channels
Sampling rate : 48.0 kHz
Compression mode : Lossy
Stream size : 79.4 MiB (11%)
Title : ☻rDX☻
Default : Yes
Forced : No



IMDB : http://www.imdb.com/title/tt6684714

Files:

18+ Acts Of Violence 2018 UNCENSORED Movies HDRip XviD AAC with Sample ☻rDX☻
  • Sample ~ 18+ Acts Of Violence 2018 UNCENSORED Movies HDRip XviD AAC ☻rDX☻.mkv (10.9 MB)
  • 18+ Acts Of Violence 2018 UNCENSORED Movies HDRip XviD AAC ☻rDX☻.mkv (694.4 MB)

There are currently no comments. Feel free to leave one :)

Code:

  • udp://tracker.coppersurfer.tk:6969/announce
  • udp://tracker.openbittorrent.com:80/announce
  • udp://glotorrents.pw:6969/announce
  • udp://tracker.publicbt.com:80/announce
  • http://retracker.krs-ix.ru/announce
  • udp://tracker.pomf.se:80/announce
  • udp://explodie.org:6969/announce
  • http://mgtracker.org:2710/announce
  • http://tracker.aletorrenty.pl:2710/announce
  • http://tracker.btcake.com/announce
  • udp://tracker.openbittorrent.com:80/announce
  • udp://tracker.leechers-paradise.org:6969/announce
  • udp://coppersurfer.tk:6969/announce