Episode 2
Watch movie

After Trek S01E07 1080p AMZN WEBRip AAC2.0 x265 HEVC D0ct0rLew[UT...

  • Category TV
  • Type HEVC/x265
  • Language English
  • Total size 466.8 MB
  • Uploaded By D0ct0rLew
  • Downloads 42
  • Last checked 1 day ago
  • Date uploaded 3 months ago
  • Seeders 2
  • Leechers 1

Infohash : 952710CC309D1548891FAA8BDDCF99EEF2A1D919





Media Information


Code:

General
Unique ID : 211416168730830450606372787779144093124 (0x9F0D45E3E4CE966E8AEE9FE1B2758DC4)
Complete name :After Trek S01E07 1080p AMZN WEBRip AAC2.0 x265 HEVC D0ct0rLew[UTR].mkv
Format : Matroska
Format version : Version 4 / Version 2
File size : 467 MiB
Duration : 35 min 4 s
Overall bit rate : 1 861 kb/s
Encoded date : UTC 2018-01-13 01:54:27
Writing application : mkvmerge v12.0.0 ('Trust / Lust') 64bit
Writing library : libebml v1.3.4 + libmatroska v1.4.5

Video
ID : 2
Format : HEVC
Format/Info : High Efficiency Video Coding
Format profile : Main [email protected]@Main
Codec ID : V_MPEGH/ISO/HEVC
Duration : 35 min 4 s
Bit rate : 1 730 kb/s
Width : 1 920 pixels
Height : 1 080 pixels
Display aspect ratio : 16:9
Frame rate mode : Constant
Frame rate : 29.970 (30000/1001) FPS
Color space : YUV
Chroma subsampling : 4:2:0
Bit depth : 10 bits
Bits/(Pixel*Frame) : 0.028
Stream size : 434 MiB (93%)
Writing library : x265 2.6+15-57eaef9abfd8:[Windows][MSVC 1912][64 bit] 10bit
Encoding settings : cpuid=1050111 / frame-threads=3 / numa-pools=8 / wpp / no-pmode / no-pme / no-psnr / no-ssim / log-level=2 / input-csp=1 / input-res=1920x1080 / interlace=0 / total-frames=63072 / level-idc=0 / high-tier=1 / uhd-bd=0 / ref=3 / no-allow-non-conformance / no-repeat-headers / annexb / no-aud / no-hrd / info / hash=0 / no-temporal-layers / open-gop / min-keyint=25 / keyint=250 / gop-lookahead=0 / bframes=8 / b-adapt=2 / b-pyramid / bframe-bias=0 / rc-lookahead=90 / lookahead-slices=6 / scenecut=40 / no-intra-refresh / ctu=64 / min-cu-size=8 / no-rect / no-amp / max-tu-size=32 / tu-inter-depth=1 / tu-intra-depth=1 / limit-tu=0 / rdoq-level=0 / dynamic-rd=0.00 / no-ssim-rd / signhide / no-tskip / nr-intra=0 / nr-inter=0 / no-constrained-intra / no-strong-intra-smoothing / max-merge=2 / limit-refs=3 / no-limit-modes / me=1 / subme=2 / merange=57 / temporal-mvp / weightp / no-weightb / no-analyze-src-pics / deblock=3:3 / no-sao / no-sao-non-deblock / rd=3 / no-early-skip / no-rskip / no-fast-intra / no-tskip-fast / no-cu-lossless / no-b-intra / no-splitrd-skip / rdpenalty=0 / psy-rd=1.20 / psy-rdoq=0.00 / no-rd-refine / analysis-reuse-mode=0 / no-lossless / cbqpoffs=3 / crqpoffs=3 / rc=crf / crf=23.0 / qcomp=0.60 / qpstep=4 / stats-write=0 / stats-read=0 / ipratio=1.40 / pbratio=1.30 / aq-mode=3 / aq-strength=1.00 / cutree / zone-count=0 / no-strict-cbr / qg-size=32 / no-rc-grain / qpmax=69 / qpmin=0 / no-const-vbv / sar=0 / overscan=0 / videoformat=5 / range=0 / colorprim=2 / transfer=2 / colormatrix=2 / chromaloc=0 / display-window=0 / max-cll=0,0 / min-luma=0 / max-luma=1023 / log2-max-poc-lsb=8 / vui-timing-info / vui-hrd-info / slices=1 / no-opt-qp-pps / no-opt-ref-list-length-pps / no-multi-pass-opt-rps / scenecut-bias=0.05 / no-opt-cu-delta-qp / no-aq-motion / no-hdr / no-hdr-opt / no-dhdr10-opt / analysis-reuse-level=5 / scale-factor=0 / refine-intra=0 / refine-inter=0 / refine-mv=0 / no-limit-sao / ctu-info=0 / no-lowpass-dct / refine-mv-type=0 / copy-pic=1
Default : Yes
Forced : No

Audio
ID : 1
Format : AAC
Format/Info : Advanced Audio Codec
Format profile : LC
Codec ID : A_AAC-2
Duration : 35 min 4 s
Bit rate : 128 kb/s
Channel(s) : 2 channels
Channel positions : Front: L R
Sampling rate : 48.0 kHz
Frame rate : 46.875 FPS (1024 SPF)
Compression mode : Lossy
Delay relative to video : 9 ms
Stream size : 32.1 MiB (7%)
Default : Yes
Forced : No


UniTeam Branding and Imagery©
No part of this release may be reproduced, distributed, de-tagged or dumped in any form or by any means, without prior consents and permissions of the UniTeam Representative. For distribution requestings, message the uploader or any other UniTeam Representative. Once and only once the permission has been granted, the individual(s) may publish to the desired location without any alterations whatsoever, retaining complete filenames, UTR tags, logos, imagery and all credits due.


Files:

  • After Trek S01E07 1080p AMZN WEBRip AAC2.0 x265 HEVC D0ct0rLew[UTR].mkv (466.8 MB)

There are currently no comments. Feel free to leave one :)

Code:

  • http://linetorrent.xyz:443/announce
  • udp://tracker.justseed.it:1337/announce
  • http://0d.kebhana.mx:443/announce
  • http://open.acgnxtracker.com:443/announce
  • http://tr.fuuko.net:443/announce
  • http://bt.dl1234.com:80/announce
  • http://p4p.arenabg.com:1337/announce
  • http://tracker.opentrackr.org:1337/announce
  • http://explodie.org:6969/announce
  • udp://tracker.zer0day.to:1337/announce
  • http://torrentsmd.com:8080/announce
  • http://tracker.city9x.com:2710/announce
  • udp://tracker.coppersurfer.tk:6969/announce
  • udp://tracker.leechers-paradise.org:6969/announce
  • udp://shadowshq.yi.org:6969/announce