Jora 10 Numbaria 2017 720p HD Punjabi GOPISAHI

  • Category Movies
  • Type Bollywood
  • Language Punjabi
  • Total size 568.3 MB
  • Uploaded By PENDUDESI
  • Downloads 1834
  • Last checked 2 days ago
  • Date uploaded 1 week ago
  • Seeders 38
  • Leechers 20

Jora 10 Numbaria

A man takes revenge on corrupt officials.

Infohash : 29309B8D06F555663B85E75662E46D6A07E2F782


Format : Matroska
Format version : Version 4 / Version 2
File size : 568 MiB
Duration : 2 h 14 min
Overall bit rate : 589 kb/s
Movie name : Jora 10 Numbaria 2017

Video
Format : AVC
Codec ID : V_MPEG4/ISO/AVC
Duration : 2 h 14 min
Bit rate : 500 kb/s
Width : 1 280 pixels
Height : 536 pixels
Display aspect ratio : 2.40:1
Frame rate mode : Constant
Frame rate : 24.000 FPS
Stream size : 482 MiB (85%)
Writing library : x264

Audio: 2
Format : AAC
Duration : 2 h 14 min
Bit rate : 87.4 kb/s
Channel(s) : 6 channels
Channel positions : Front: L C R, Side: L R, LFE
Sampling rate : 44.1 kHz
Frame rate : 43.066 FPS (1024 SPF)
Compression mode : Lossy
Stream size : 84.3 MiB (15%)
Language : Panjabi


Files:

  • Jora 10 Numbaria 2017 720p HD Punjabi GOPISAHI.mkv (568.3 MB)

Comments

Code:

  • http://ipv4.tracker.harry.lu/announce
  • http://ipv4.tracker.harry.lu:80/announce
  • http://163.172.180.68:80/announce
  • http://t.nyaatracker.com/announce
  • http://tracker.devil-torrents.pl:80/announce
  • http://tracker.devil-torrents.pl/announce
  • http://open.kickasstracker.com/announce
  • http://163.172.180.68/announce
  • http://t.nyaatracker.com:80/announce
  • http://retracker.mgts.by:80/announce
  • http://45.33.11.224/announce
  • http://tracker.torrentyorg.pl:80/announce
  • http://pt.lax.mx:80/announce
  • udp://tracker.coppersurfer.tk:6969/announce
  • udp://tracker.pirateparty.gr:6969/announce