Simone Iliescu | John Malkovich | You, Me And The Apocalypse

Tiger Zinda Hai 2017 Hindi 720 pdvd upscaled x264 AAC { TaRa }

  • Category Movies
  • Type Bollywood
  • Language Hindi
  • Total size 1.4 GB
  • Uploaded By SkTara
  • Downloads 20030
  • Last checked 1 day ago
  • Date uploaded 2 months ago
  • Seeders 140
  • Leechers 6

Tiger Zinda Hai

ThrillerAction

RAW agent Tiger/Avinash Singh Rathore returns from the dead to take on an international terrorist organisation but this time he has his wife Zoya by his side.

Infohash : D17593038D0E320858926AB21E8339437145814E


Tiger Zinda Hai 2017 Hindi 720p DVDRip x264 AAC { TaRa }.mkv


===================================================================
General
Complete name : Tiger Zinda Hai 2017 Hindi 720p DVDRip x264 AAC { TaRa }.mkv
Format : Matroska
Format version : Version 4 / Version 2
File size : 1.37 GiB
Duration : 2 h 40 min
Overall bit rate : 1 223 kb/s
===================================================================
Video
ID : 1
Format : AVC
Format/Info : Advanced Video Codec
Format profile : [email protected]
Format settings, CABAC : Yes
Format settings, ReFrames : 4 frames
Codec ID : V_MPEG4/ISO/AVC
Duration : 2 h 40 min
Bit rate : 1 091 kb/s
Width : 1 280 pixels
Height : 576 pixels
Display aspect ratio : 2.222
Frame rate mode : Variable
Frame rate : 29.970 FPS
Color space : YUV
Chroma subsampling : 4:2:0
Bit depth : 8 bits
Scan type : Progressive
Bits/(Pixel*Frame) : 0.049
Stream size : 1.22 GiB (89%)
Title : .....::::: TaRa :::::.....
Language : Hindi
Default : Yes
Forced : No
===================================================================
Audio
ID : 2
Format : AAC
Format/Info : Advanced Audio Codec
Format profile : LC
Codec ID : A_AAC
Duration : 2 h 40 min
Bit rate : 128 kb/s
Channel(s) : 2 channels
Channel positions : Front: L R
Sampling rate : 48.0 kHz
Frame rate : 46.875 FPS (1024 spf)
Compression mode : Lossy
Delay relative to video : -21 ms
Stream size : 147 MiB (11%)
Title : .....::::: TaRa :::::.....
Language : Hindi
Default : Yes
Forced : No
===================================================================









































Files:

Tiger Zinda Hai 2017 Hindi 720p DVDRip x264 AAC { TaRa }
  • www.hdsector.to.txt (0.8 KB)
  • Tiger Zinda Hai 2017 Hindi 720p DVDRip x264 AAC { TaRa } PC INF.nfo (6.5 KB)
  • tiger-zinda-hai-770x433.jpg (58.4 KB)
  • tiger-zinda-hai-new-poster-081117.jpg (216.0 KB)
  • Tiger Zinda Hai 2017 Hindi 720p DVDRip x264 AAC { TaRa }.mkv (1.4 GB)

Comments

Code:

  • udp://tracker.coppersurfer.tk:6969/announce
  • udp://tracker.pirateparty.gr:6969/announce
  • udp://shadowshq.yi.org:6969/announce
  • udp://eddie4.nl:6969/announce
  • udp://tracker.leechers-paradise.org:6969/announce
  • udp://tracker.opentrackr.org:1337/announce
  • udp://p4p.arenabg.ch:1337/announce
  • udp://p4p.arenabg.com:1337/announce
  • udp://9.rarbg.me:2710/announce
  • udp://9.rarbg.to:2770/announce
  • udp://tracker.coppersurfer.tk:80/announce
  • udp://tracker.vanitycore.co:6969/announce
  • udp://public.popcorn-tracker.org:6969/announce
  • udp://tracker.opentrackr.org:1337/announce
  • udp://tracker.zer0day.to:1337/announce