Sylvio 2017 720p WEB-DL x264 ESub

  • Category Movies
  • Type HD
  • Language English
  • Total size 742.8 MB
  • Uploaded By moviezworldz
  • Downloads 196
  • Last checked 1 week ago
  • Date uploaded 1 week ago
  • Seeders 11
  • Leechers 4

Sylvio

Comedy

A small town gorilla joins a local TV program and a series of on-air mishaps threaten to shatter his identity, sending him on an adventure of self-discovery where reality and fantasy start to blend.

Infohash : 92683A05D5C972FD10DE5CC1A5074B4EF85B14D5





General
Format                      : Matroska
Format version              : Version 4 / Version 2
File size                   : 743 MiB
Duration                    : 1 h 20 min
Overall bit rate            : 1 292 kb/s

Video
ID                          : 1
Format                      : AVC
Format/Info                 : Advanced Video Codec
Format profile              : [email protected]
Format settings             : CABAC / 4 Ref Frames
Format settings, CABAC      : Yes
Format settings, ReFrames   : 4 frames
Codec ID                    : V_MPEG4/ISO/AVC
Duration                    : 1 h 20 min
Bit rate                    : 1 200 kb/s
Width                       : 1 280 pixels
Height                      : 720 pixels
Display aspect ratio        : 16:9
Frame rate mode             : Constant
Frame rate                  : 23.976 (24000/1001) FPS
Color space                 : YUV
Chroma subsampling          : 4:2:0
Bit depth                   : 8 bits
Scan type                   : Progressive
Bits/(Pixel*Frame)          : 0.054
Stream size                 : 686 MiB (92%)
Writing library             : x264 core 148 r2708 86b7198
Default                     : Yes
Forced                      : No

Audio
ID                          : 2
Format                      : AAC
Format/Info                 : Advanced Audio Codec
Format profile              : LC
Codec ID                    : A_AAC-2
Duration                    : 1 h 20 min
Bit rate                    : 96.0 kb/s
Channel(s)                  : 2 channels
Channel positions           : Front: L R
Sampling rate               : 44.1 kHz
Frame rate                  : 43.066 FPS (1024 SPF)
Compression mode            : Lossy
Stream size                 : 55.2 MiB (7%)
Language                    : English
Default                     : Yes
Forced                      : No

Text #1
ID                          : 3
Format                      : UTF-8
Codec ID                    : S_TEXT/UTF8
Codec ID/Info               : UTF-8 Plain Text
Duration                    : 1 h 17 min
Bit rate                    : 30 b/s
Count of elements           : 613
Stream size                 : 17.6 KiB (0%)
Language                    : English
Default                     : No
Forced                      : No

Text #2
ID                          : 4
Format                      : UTF-8
Codec ID                    : S_TEXT/UTF8
Codec ID/Info               : UTF-8 Plain Text
Duration                    : 1 h 18 min
Bit rate                    : 37 b/s
Count of elements           : 807
Stream size                 : 21.3 KiB (0%)
Title                       : SDH
Language                    : English
Default                     : No
Forced                      : No










Files:

Sylvio 2017 720p WEB-DL x264 ESub
  • Sylvio 2017 720p WEB-DL x264 ESub.mkv (742.8 MB)

There are currently no comments. Feel free to leave one :)

Code:

  • udp://tracker.coppersurfer.tk:6969/announce
  • udp://tracker.leechers-paradise.org:6969/announce
  • udp://inferno.demonoid.pw:3391/announce
  • udp://tracker.tntvillage.scambioetico.org:2710/announce
  • udp://tracker.pirateparty.gr:6969/announce
  • udp://9.rarbg.com:2770/announce
  • udp://public.popcorn-tracker.org:6969/announce
  • udp://tracker.zer0day.to:1337/announce
  • http://bigfoot1942.sektori.org:6969/announce
  • udp://ipv4.tracker.harry.lu:80/announce
  • udp://shadowshq.yi.org:6969/announce
  • udp://tracker.vanitycore.co:6969/announce
  • udp://tracker.opentrackr.org:1337/announce
  • udp://explodie.org:6969/announce
  • udp://tracker.zer0day.to:1337/announce
  • udp://tracker.leechers-paradise.org:6969/announce
  • udp://coppersurfer.tk:6969/announce