[Zobacz cały opis] | Catherine Zeta-Jones | Hunter Stratton Boland

Eric Clapton Life in 12 Bars (2017) 1080p DD5.1 - 2.0 x264 Phun P...

  • Category Documentaries
  • Type Documentary
  • Language English
  • Total size 2.1 GB
  • Uploaded By PhunPsyz
  • Downloads 1272
  • Last checked 1 day ago
  • Date uploaded 2 months ago
  • Seeders 17
  • Leechers 0

Infohash : B58D416F57C73C72A7A0F2DFA6B2CE333286F7D9

www.imdb.com/title/tt6498644/

A look at the life and work of guitarist Eric Clapton, told by those who have known him best, including BB King, Jimi Hendrix, and George Harrison.

Source: monkee (Amzn) (7.56 GiB)



Format                      : MPEG-4
Format profile              : Base Media / Version 2
Codec ID                    : mp42 (isom/iso2/avc1/mp41)
File size                   : 2.13 GiB
Duration                    : 2 h 13 min
Overall bit rate mode       : Variable
Overall bit rate            : 2 275 kb/s

Video
ID                          : 1
Format                      : AVC
Format/Info                 : Advanced Video Codec
Format profile              : [email protected]
Format settings             : CABAC / 8 Ref Frames
Format settings, CABAC      : Yes
Format settings, RefFrames  : 8 frames
Codec ID                    : avc1
Codec ID/Info               : Advanced Video Coding
Duration                    : 2 h 13 min
Bit rate                    : 1 788 kb/s
Width                       : 1 920 pixels
Height                      : 1 038 pixels
Display aspect ratio        : 1.85:1
Frame rate mode             : Variable
Frame rate                  : 23.976 (24000/1001) FPS
Minimum frame rate          : 23.974 FPS
Maximum frame rate          : 23.981 FPS
Color space                 : YUV
Chroma subsampling          : 4:2:0
Bit depth                   : 8 bits
Scan type                   : Progressive
Bits/(Pixel*Frame)          : 0.037
Stream size                 : 1.67 GiB (79%)
Writing library             : x264 core 148 r2708 86b7198

Audio #1
ID                          : 2
Format                      : AC-3
Format/Info                 : Audio Coding 3
Format settings, Endianness : Big
Codec ID                    : ac-3
Duration                    : 2 h 13 min
Bit rate mode               : Constant
Bit rate                    : 320 kb/s
Channel(s)                  : 6 channels
Channel positions           : Front: L C R, Side: L R, LFE
Sampling rate               : 48.0 kHz
Frame rate                  : 31.250 FPS (1536 SPF)
Bit depth                   : 16 bits
Compression mode            : Lossy
Stream size                 : 306 MiB (14%)
Title                       : Surround / Surround
Language                    : English

Audio #2
ID                          : 3
Format                      : AAC
Format/Info                 : Advanced Audio Codec
Format profile              : LC
Codec ID                    : mp4a-40-2
Duration                    : 2 h 13 min
Bit rate mode               : Variable
Bit rate                    : 160 kb/s
Channel(s)                  : 2 channels
Channel positions           : Front: L R
Sampling rate               : 48.0 kHz
Frame rate                  : 46.875 FPS (1024 SPF)
Compression mode            : Lossy
Stream size                 : 153 MiB (7%)
Title                       : Stereo / Stereo
Language                    : English

Text #1
ID                          : 4
Format                      : Timed Text
Muxing mode                 : sbtl
Codec ID                    : tx3g
Duration                    : 2 h 11 min
Bit rate mode               : Variable
Bit rate                    : 65 b/s
Stream size                 : 62.3 KiB (0%)
Language                    : English
Default                     : Yes
Forced                      : No

Text #2
ID                          : 5
Format                      : Timed Text
Muxing mode                 : sbtl
Codec ID                    : tx3g
Duration                    : 2 h 12 min
Bit rate mode               : Variable
Bit rate                    : 68 b/s
Stream size                 : 66.2 KiB (0%)
Language                    : English
Default                     : No
Forced                      : No

Files:

  • Eric Clapton Life in 12 Bars (2017) 1080p DD5.1 - 2.0 x264 Phun Psyz.mp4 (2.1 GB)

Comments

Code:

  • udp://tracker.pirateparty.gr:6969/announce
  • udp://tracker.leechers-paradise.org:6969/announce
  • udp://tracker.internetwarriors.net:1337/announce
  • udp://inferno.demonoid.pw:3391/announce
  • http://explodie.org:6969/announce
  • http://mgtracker.org:6969/announce
  • udp://tracker.coppersurfer.tk:6969/announce
  • udp://public.popcorn-tracker.org:6969/announce
  • http://tracker.opentrackr.org/announce
  • udp://tracker.tiny-vps.com:6969/announce