Initiation 2016 Movies 720p HDRip x264 5.1 ESubs with Sample ☻rDX...

  • Category Movies
  • Type HD
  • Language English
  • Total size 983.1 MB
  • Uploaded By nehalpuja
  • Downloads 18
  • Last checked 1 day ago
  • Date uploaded 1 week ago
  • Seeders 7
  • Leechers 1

Initiation

Thriller

Five strangers are taken hostage and forced to fight to the death as a form of initiation into a bizarre, violent brotherhood.

Infohash : A986748C4C327F32E42482AE8B3FE456EA0DD91A

Initiation 2016 Movies 720p HDRip x264 5.1 ESubs with Sample ☻rDX☻
===============================================================================================

SCREEN SHOTS:



or

http://postimage.co.nr/2018/2/computer/1.html

File size : 974 MiB
Duration : 1 h 21 min
Overall bit rate : 1 672 kb/s
Movie name : Initiation 2016 Movies 720p HDRip x264 5.1 ESubs ☻rDX☻

Video
ID : 2
Format : AVC
Format/Info : Advanced Video Codec
Format profile : [email protected]
Format settings, CABAC : Yes
Format settings, ReFrames : 4 frames
Codec ID : V_MPEG4/ISO/AVC
Duration : 1 h 21 min
Bit rate : 1 300 kb/s
Width : 1 280 pixels
Height : 720 pixels
Display aspect ratio : 16:9
Frame rate mode : Constant
Frame rate : 23.976 (23976/1000) FPS
Original frame rate : 23.976 (24000/1001) FPS
Color space : YUV
Chroma subsampling : 4:2:0
Bit depth : 8 bits
Scan type : Progressive
Bits/(Pixel*Frame) : 0.059
Stream size : 731 MiB (75%)
Title : ☻rDX☻
Writing library : x264

Audio
ID : 1
Format : AC-3
Format/Info : Audio Coding 3
Mode extension : CM (complete main)
Format settings, Endianness : Big
Codec ID : A_AC3
Duration : 1 h 21 min
Bit rate mode : Constant
Bit rate : 384 kb/s
Channel(s) : 6 channels
Channel positions : Front: L C R, Side: L R, LFE
Sampling rate : 48.0 kHz
Frame rate : 31.250 FPS (1536 spf)
Bit depth : 16 bits
Compression mode : Lossy
Stream size : 224 MiB (23%)
Title : ☻rDX☻
Language : English
Default : Yes
Forced : No

Text
ID : 3
Format : UTF-8
Codec ID : S_TEXT/UTF8
Codec ID/Info : UTF-8 Plain Text
Title : ☻rDX☻
Default : Yes
Forced : No



IMDB : http://www.imdb.com/title/tt2781612

Files:

Initiation 2016 Movies 720p HDRip x264 5.1 ESubs with Sample ☻rDX☻
  • Sample ~ Initiation 2016 Movies 720p HDRip x264 5.1 ESubs ☻rDX☻.mkv (9.1 MB)
  • Initiation 2016 Movies 720p HDRip x264 5.1 ESubs ☻rDX☻.mkv (973.9 MB)

There are currently no comments. Feel free to leave one :)

Code:

  • udp://tracker.coppersurfer.tk:6969/announce
  • udp://tracker.openbittorrent.com:80/announce
  • udp://glotorrents.pw:6969/announce
  • udp://tracker.publicbt.com:80/announce
  • http://retracker.krs-ix.ru/announce
  • udp://tracker.pomf.se:80/announce
  • udp://explodie.org:6969/announce
  • http://mgtracker.org:2710/announce
  • http://tracker.aletorrenty.pl:2710/announce
  • http://tracker.btcake.com/announce
  • udp://tracker.openbittorrent.com:80/announce
  • udp://tracker.leechers-paradise.org:6969/announce
  • udp://coppersurfer.tk:6969/announce